4K电视开播!台湾4K公视UHD短片《德国淮杨乡村》60fps/H265/2160p_4K资源五分时时彩计划_ZNDS
<span id="adfbc"></span>

<legend id="adfbc"><param id="adfbc"><meter id="adfbc"></meter></param><keygen id="adfbc"><hgroup id="adfbc"><sup id="adfbc"></sup></hgroup></keygen></legend><meter id="adfbc"></meter>
      <output id="adfbc"></output>
    • <ol id="adfbc"><textarea id="adfbc"></textarea><cite id="adfbc"></cite><ul id="adfbc"></ul></ol>
    • <del id="adfbc"><cite id="adfbc"><hgroup id="adfbc"><param id="adfbc"><link id="adfbc"><sub id="adfbc"></sub></link></param></hgroup></cite></del>
    • <bdo id="adfbc"><sup id="adfbc"><div id="adfbc"><bdo id="adfbc"></bdo></div></sup></bdo>
    • <section id="adfbc"><div id="adfbc"><sup id="adfbc"></sup></div></section><figcaption id="adfbc"></figcaption>

      • 首页 收藏 QQ群
         网站导航
        开启辅助访问

        QQ登录

        只需一步,快速开始

        扫一扫,访问微社区

        立即注册 找回密码

        ZNDS五分时时彩 推荐五分时时彩

        TV应用五分时时彩计划 / 资源分享区

        软件五分时时彩计划 | 游戏 | 讨论 | 3D | 4K资源 | VR

        综合交流 / 评测 / 活动区

        交流区 | 测硬件 | 网站活动 | Z币中心

        新手入门 / 进阶 / 社区互助

        新手 | 你问我答 | 免费刷机救砖 | ROM固件

        查看: 81056|回复: 259
        上一主题 下一主题
        [4K视频]

        4K电视开播!台湾4K公视UHD短片《德国淮杨乡村》60fps/H265/2160p

          [复制链接]
        跳转到指定楼层
        楼主
        发表于 2017-9-10 13:14 | 只看该作者 |只看大图 回帖奖励 |倒序浏览 |阅读模式
        4K电视开播!台湾4K公视UHD短片《德国淮杨乡村》60fps/H265/2160p
        4K电视开播!台湾4K公视UHD短片《德国淮杨乡村》60fps/H265/2160p
        4K电视开播!台湾4K公视UHD短片《德国淮杨乡村》60fps/H265/2160p
        4K电视开播!台湾4K公视UHD短片《德国淮杨乡村》60fps/H265/2160p
        4K电视开播!台湾4K公视UHD短片《德国淮杨乡村》60fps/H265/2160p

        台湾4K公视UHD演示短片《德国淮杨乡村》风景优美、惬意![60fps/H.265/2160p]

        1. General
        2. Complete name                  : D:\4K公视UHD-欧盟-德国淮杨乡村.mkv
        3. Format                         : Matroska
        4. Format version                 : Version 4 / Version 2
        5. File size                      : 407 MiB
        6. Duration                       : 4 min 21 s
        7. Overall bit rate               : 13.1 Mb/s
        8. Encoded date                   : UTC 2017-08-10 08:45:11
        9. Writing application            : mkvmerge v9.2.0 ('Photograph') 64bit
        10. Writing library                : libebml v1.3.3 + libmatroska v1.4.4

        11. Video
        12. ID                             : 1
        13. Format                         : HEVC
        14. Format/Info                    : High Efficiency Video Coding
        15. Codec ID                       : V_MPEGH/ISO/HEVC
        16. Duration                       : 4 min 21 s
        17. Bit rate                       : 13.0 Mb/s
        18. Width                          : 3 840 pixels
        19. Height                         : 2 160 pixels
        20. Display aspect ratio           : 16:9
        21. Frame rate mode                : Constant
        22. Frame rate                     : 59.940 (60000/1001) FPS
        23. Bits/(Pixel*Frame)             : 0.026
        24. Stream size                    : 404 MiB (99%)
        25. Default                        : Yes
        26. Forced                         : No

        27. Audio
        28. ID                             : 2
        29. Format                         : AAC
        30. Format/Info                    : Advanced Audio Codec
        31. Format profile                 : HE-AAC / LC
        32. Codec ID                       : A_AAC
        33. Duration                       : 4 min 20 s
        34. Bit rate                       : 93.9 kb/s
        35. Channel(s)                     : 2 channels
        36. Channel positions              : Front: L R
        37. Sampling rate                  : 48.0 kHz / 24.0 kHz
        38. Frame rate                     : 23.438 FPS (1024 spf)
        39. Compression mode               : Lossy
        40. Delay relative to video        : 128 ms
        41. Stream size                    : 2.91 MiB (1%)
        42. Default                        : Yes
        43. Forced                         : No
        复制代码



        上一篇:【4k壁纸】海边高空跳伞运动 高清壁纸
        下一篇:4K电视频道画质抢先看!台湾公共电视频道、4K 60fps视频短片
        沙发
        发表于 2017-9-10 14:07 | 只看该作者
        看一下,感谢分享。
        回复 支持 反对

        使用道具 举报

        板凳
        发表于 2017-9-10 14:32 | 只看该作者
        楼主辛苦了
        回复 支持 反对

        使用道具 举报

        地板
        发表于 2017-9-10 15:40 | 只看该作者
        又见一个好帖,果断先马克mark收藏了!
        回复 支持 反对

        使用道具 举报

        5#
        发表于 2017-9-10 15:41 | 只看该作者
        老铁666!必须支持一波!
        回复 支持 反对

        使用道具 举报

        6#
        发表于 2017-9-10 16:37 | 只看该作者
        楼主用心了,内容非常精彩。
        回复 支持 反对

        使用道具 举报

        7#
        发表于 2017-9-10 16:58 | 只看该作者
        此楼主日后必成大器!不是一语双关...
        回复 支持 反对

        使用道具 举报

        8#
        发表于 2017-9-10 20:37 | 只看该作者
        必须支持一波!
        回复 支持 反对

        使用道具 举报

        9#
        发表于 2017-9-10 22:09 | 只看该作者
        老铁666!必须支持一波!
        回复 支持 反对

        使用道具 举报

        10#
        发表于 2017-9-11 21:25 | 只看该作者
        最近人工智能电视很火!
        回复 支持 反对

        使用道具 举报

        您需要登录后才可以回帖 登录 | 立即注册

        本版积分规则

        关闭

        推荐应用 上一条 /6 下一条

        Archiver|新帖|标签|软件|Sitemap|ZNDS五分时时彩 ( 浙ICP备14000780号 )

        增值电信业务经营许可证:浙B2-20150411 丨 浙公网安备 33010802006145号

        浙网文(2016)6491-366号 | GMT+8, 2019-4-19 00:35 , Processed in 0.106927 second(s), 23 queries , MemCache On.

        Powered by Discuz!

        监督举报:report#znds.com (请将#替换为@)

        © 2007-2019 ZNDS.Com

        快速回复 返回顶部 返回列表